Sinopsis

La sabana africana es el escenario en el que tienen lugar las aventuras de Simba, un pequeño león que es el heredero del trono. Sin embargo, se ve forzado a exiliarse al ser injustamente acusado de la muerte de su padre. Durante su destierro, hará buenas amistades y, finalmente, regresará para recuperar lo que legítimamente le corresponde.

Video
Format : AVC
Duration : 1h 27mn
Bit rate mode : Variable
Bit rate : 5 791 Kbps
Width : 1 920 pixels
Height : 1 080 pixels
Stream size : 3.56 GiB (89%)

Audio

Format : AC-3
Codec ID : 129
Duration : 1h 27mn
Bit rate : 448 Kbps
Channel(s) : 6 channels
Channel positions : Front: L C R, Side: L R, LFE
Sampling rate : 48.0 KHz
Bit depth : 16 bit
Stream size : 279 MiB (7%)Language : Español Latino







Descargar